  0
SECTION
  2
HEADER
  9
$ACADVER
  1
AC1009
  9
$INSBASE
 10
0.0
 20
0.0
 30
0.0
  9
$EXTMIN
 10
-82.562259
 20
-257.405344
 30
0.0
  9
$EXTMAX
 10
280.349706
 20
34.288105
 30
0.0
  9
$LIMMIN
 10
0.0
 20
0.0
  9
$LIMMAX
 10
12.0
 20
9.0
  9
$ORTHOMODE
 70
     1
  9
$REGENMODE
 70
     1
  9
$FILLMODE
 70
     1
  9
$QTEXTMODE
 70
     0
  9
$MIRRTEXT
 70
     1
  9
$DRAGMODE
 70
     2
  9
$LTSCALE
 40
1.0
  9
$OSMODE
 70
   675
  9
$ATTMODE
 70
     1
  9
$TEXTSIZE
 40
0.2
  9
$TRACEWID
 40
0.05
  9
$TEXTSTYLE
  7
STANDARD
  9
$CLAYER
  8
0
  9
$CELTYPE
  6
CONTINUOUS
  9
$CECOLOR
 62
     6
  9
$DIMSCALE
 40
1.0
  9
$DIMASZ
 40
6.0
  9
$DIMEXO
 40
0.0625
  9
$DIMDLI
 40
0.38
  9
$DIMRND
 40
0.0
  9
$DIMDLE
 40
0.0
  9
$DIMEXE
 40
0.18
  9
$DIMTP
 40
0.0
  9
$DIMTM
 40
0.0
  9
$DIMTXT
 40
6.0
  9
$DIMCEN
 40
0.09
  9
$DIMTSZ
 40
0.0
  9
$DIMTOL
 70
     0
  9
$DIMLIM
 70
     0
  9
$DIMTIH
 70
     0
  9
$DIMTOH
 70
     1
  9
$DIMSE1
 70
     0
  9
$DIMSE2
 70
     0
  9
$DIMTAD
 70
     0
  9
$DIMZIN
 70
     0
  9
$DIMBLK
  1

  9
$DIMASO
 70
     1
  9
$DIMSHO
 70
     1
  9
$DIMPOST
  1

  9
$DIMAPOST
  1

  9
$DIMALT
 70
     0
  9
$DIMALTD
 70
     2
  9
$DIMALTF
 40
25.4
  9
$DIMLFAC
 40
1.0
  9
$DIMTOFL
 70
     0
  9
$DIMTVP
 40
0.0
  9
$DIMTIX
 70
     0
  9
$DIMSOXD
 70
     0
  9
$DIMSAH
 70
     0
  9
$DIMBLK1
  1

  9
$DIMBLK2
  1

  9
$DIMSTYLE
  2
STANDARD
  9
$DIMCLRD
 70
     0
  9
$DIMCLRE
 70
     0
  9
$DIMCLRT
 70
     0
  9
$DIMTFAC
 40
1.0
  9
$DIMGAP
 40
2.0
  9
$LUNITS
 70
     2
  9
$LUPREC
 70
     3
  9
$SKETCHINC
 40
0.1
  9
$FILLETRAD
 40
0.5
  9
$AUNITS
 70
     0
  9
$AUPREC
 70
     0
  9
$MENU
  1
.
  9
$ELEVATION
 40
0.0
  9
$PELEVATION
 40
0.0
  9
$THICKNESS
 40
0.0
  9
$LIMCHECK
 70
     0
  9
$BLIPMODE
 70
     0
  9
$CHAMFERA
 40
0.5
  9
$CHAMFERB
 40
0.5
  9
$SKPOLY
 70
     1
  9
$TDCREATE
 40
2451522.485152
  9
$TDUPDATE
 40
2451522.598487
  9
$TDINDWG
 40
0.113335
  9
$TDUSRTIMER
 40
0.113335
  9
$USRTIMER
 70
     1
  9
$ANGBASE
 50
0.0
  9
$ANGDIR
 70
     0
  9
$PDMODE
 70
     0
  9
$PDSIZE
 40
0.0
  9
$PLINEWID
 40
0.0
  9
$COORDS
 70
     1
  9
$SPLFRAME
 70
     0
  9
$SPLINETYPE
 70
     6
  9
$SPLINESEGS
 70
     8
  9
$ATTDIA
 70
     0
  9
$ATTREQ
 70
     1
  9
$HANDLING
 70
     1
  9
$HANDSEED
  5
B5B
  9
$SURFTAB1
 70
     6
  9
$SURFTAB2
 70
     6
  9
$SURFTYPE
 70
     6
  9
$SURFU
 70
     6
  9
$SURFV
 70
     6
  9
$UCSNAME
  2

  9
$UCSORG
 10
0.0
 20
0.0
 30
0.0
  9
$UCSXDIR
 10
1.0
 20
0.0
 30
0.0
  9
$UCSYDIR
 10
0.0
 20
1.0
 30
0.0
  9
$PUCSNAME
  2

  9
$PUCSORG
 10
0.0
 20
0.0
 30
0.0
  9
$PUCSXDIR
 10
1.0
 20
0.0
 30
0.0
  9
$PUCSYDIR
 10
0.0
 20
1.0
 30
0.0
  9
$USERI1
 70
     0
  9
$USERI2
 70
     0
  9
$USERI3
 70
     0
  9
$USERI4
 70
     0
  9
$USERI5
 70
     0
  9
$USERR1
 40
0.0
  9
$USERR2
 40
0.0
  9
$USERR3
 40
0.0
  9
$USERR4
 40
0.0
  9
$USERR5
 40
0.0
  9
$WORLDVIEW
 70
     1
  9
$SHADEDGE
 70
     3
  9
$SHADEDIF
 70
    70
  9
$TILEMODE
 70
     1
  9
$MAXACTVP
 70
    48
  9
$PLIMCHECK
 70
     0
  9
$PEXTMIN
 10
1.000000E+020
 20
1.000000E+020
 30
1.000000E+020
  9
$PEXTMAX
 10
-1.000000E+020
 20
-1.000000E+020
 30
-1.000000E+020
  9
$PLIMMIN
 10
0.0
 20
0.0
  9
$PLIMMAX
 10
12.0
 20
9.0
  9
$UNITMODE
 70
     0
  9
$VISRETAIN
 70
     1
  9
$PLINEGEN
 70
     0
  9
$PSLTSCALE
 70
     1
  0
ENDSEC
  0
SECTION
  2
TABLES
  0
TABLE
  2
VPORT
 70
     2
  0
VPORT
  2
*ACTIVE
 70
     0
 10
0.0
 20
0.0
 11
1.0
 21
1.0
 12
98.888683
 22
-105.738653
 13
0.0
 23
0.0
 14
0.5
 24
0.5
 15
0.5
 25
0.5
 16
0.0
 26
0.0
 36
1.0
 17
0.0
 27
0.0
 37
0.0
 40
308.223373
 41
1.889488
 42
50.0
 43
0.0
 44
0.0
 50
0.0
 51
0.0
 71
     0
 72
   100
 73
     1
 74
     1
 75
     0
 76
     0
 77
     0
 78
     0
  0
ENDTAB
  0
TABLE
  2
LTYPE
 70
     7
  0
LTYPE
  2
CONTINUOUS
 70
     0
  3
Solid line
 72
    65
 73
     0
 40
0.0
  0
LTYPE
  2
CENTER
 70
     0
  3
Center ____ _ ____ _ ____ _ ____ _ ____ _ ____
 72
    65
 73
     4
 40
2.0
 49
1.25
 49
-0.25
 49
0.25
 49
-0.25
  0
LTYPE
  2
CENTER2
 70
     0
  3
Center (.5x) ___ _ ___ _ ___ _ ___ _ ___ _ ___
 72
    65
 73
     4
 40
1.125
 49
0.75
 49
-0.125
 49
0.125
 49
-0.125
  0
LTYPE
  2
CENTERX2
 70
     0
  3
Center (2x) ________  __  ________  __  _____
 72
    65
 73
     4
 40
4.0
 49
2.5
 49
-0.5
 49
0.5
 49
-0.5
  0
LTYPE
  2
DASHED
 70
     0
  3
Dashed __ __ __ __ __ __ __ __ __ __ __ __ __ _
 72
    65
 73
     2
 40
0.75
 49
0.5
 49
-0.25
  0
LTYPE
  2
DASHED2
 70
     0
  3
Dashed (.5x) _ _ _ _ _ _ _ _ _ _ _ _ _ _ _ _ _
 72
    65
 73
     2
 40
0.375
 49
0.25
 49
-0.125
  0
LTYPE
  2
DASHEDX2
 70
     0
  3
Dashed (2x) ____  ____  ____  ____  ____  ___
 72
    65
 73
     2
 40
1.5
 49
1.0
 49
-0.5
  0
ENDTAB
  0
TABLE
  2
LAYER
 70
     2
  0
LAYER
  2
0
 70
     0
 62
     7
  6
CONTINUOUS
  0
LAYER
  2
DEFPOINTS
 70
     0
 62
     7
  6
CONTINUOUS
  0
ENDTAB
  0
TABLE
  2
STYLE
 70
     2
  0
STYLE
  2
STANDARD
 70
     0
 40
7.0
 41
1.0
 50
0.0
 71
     0
 42
0.2
  3
txt.shx
  4

  0
STYLE
  2

 70
     1
 40
0.0
 41
1.0
 50
0.0
 71
     0
 42
0.2
  3
ltypeshp.shx
  4

  0
ENDTAB
  0
TABLE
  2
VIEW
 70
     0
  0
ENDTAB
  0
TABLE
  2
UCS
 70
     0
  0
ENDTAB
  0
TABLE
  2
APPID
 70
     1
  0
APPID
  2
ACAD
 70
     0
  0
ENDTAB
  0
TABLE
  2
DIMSTYLE
 70
     1
  0
DIMSTYLE
  2
STANDARD
 70
     0
  3

  4

  5

  6

  7

 40
1.0
 41
0.18
 42
0.0625
 43
0.38
 44
0.18
 45
0.0
 46
0.0
 47
0.0
 48
0.0
140
0.18
141
0.09
142
0.0
143
25.4
144
1.0
145
0.0
146
1.0
147
0.09
 71
     0
 72
     0
 73
     1
 74
     1
 75
     0
 76
     0
 77
     0
 78
     0
170
     0
171
     2
172
     0
173
     0
174
     0
175
     0
176
     0
177
     0
178
     0
  0
ENDTAB
  0
ENDSEC
  0
SECTION
  2
BLOCKS
  0
BLOCK
  8
0
  2
$MODEL_SPACE
 70
     0
 10
0.0
 20
0.0
 30
0.0
  3
$MODEL_SPACE
  1

  0
ENDBLK
  5
1B
  8
0
  0
BLOCK
 67
     1
  8
0
  2
$PAPER_SPACE
 70
     0
 10
0.0
 20
0.0
 30
0.0
  3
$PAPER_SPACE
  1

  0
ENDBLK
  5
18
 67
     1
  8
0
  0
BLOCK
  8
0
  2
*D4
 70
     1
 10
0.0
 20
0.0
 30
0.0
  3
*D4
  1

  0
LINE
  5
ACC
  8
0
  6
BYBLOCK
 62
     0
 10
252.189718
 20
7.604749
 30
0.0
 11
271.092284
 21
7.604749
 31
0.0
  0
LINE
  5
ACD
  8
0
  6
BYBLOCK
 62
     0
 10
252.189718
 20
-22.395251
 30
0.0
 11
271.092284
 21
-22.395251
 31
0.0
  0
LINE
  5
ACE
  8
0
  6
BYBLOCK
 62
     0
 10
270.912284
 20
1.604749
 30
0.0
 11
270.912284
 21
-1.895251
 31
0.0
  0
LINE
  5
ACF
  8
0
  6
BYBLOCK
 62
     0
 10
270.912284
 20
-16.395251
 30
0.0
 11
270.912284
 21
-12.895251
 31
0.0
  0
SOLID
  5
AD0
  8
0
  6
BYBLOCK
 62
     0
 10
269.912284
 20
1.604749
 30
0.0
 11
271.912284
 21
1.604749
 31
0.0
 12
270.912284
 22
7.604749
 32
0.0
 13
270.912284
 23
7.604749
 33
0.0
  0
SOLID
  5
AD1
  8
0
  6
BYBLOCK
 62
     0
 10
269.912284
 20
-16.395251
 30
0.0
 11
271.912284
 21
-16.395251
 31
0.0
 12
270.912284
 22
-22.395251
 32
0.0
 13
270.912284
 23
-22.395251
 33
0.0
  0
TEXT
  8
0
  40
7
  5
B31
  62
0
  72
0
  71
0
 10
256.912
 20
-19.7853
 30
0.000000
  1
30
  0
POINT
  5
AD3
  8
DEFPOINTS
  6
BYBLOCK
 62
     0
 10
252.127218
 20
7.604749
 30
0.0
  0
POINT
  5
AD4
  8
DEFPOINTS
  6
BYBLOCK
 62
     0
 10
252.127218
 20
-22.395251
 30
0.0
  0
POINT
  5
AD5
  8
DEFPOINTS
  6
BYBLOCK
 62
     0
 10
270.912284
 20
-22.395251
 30
0.0
  0
ENDBLK
  5
AD6
  8
0
  0
BLOCK
  8
0
  2
*D5
 70
     1
 10
0.0
 20
0.0
 30
0.0
  3
*D5
  1

  0
LINE
  5
A8B
  8
0
  6
BYBLOCK
 62
     0
 10
184.787246
 20
2.604749
 30
0.0
 11
169.034052
 21
2.604749
 31
0.0
  0
LINE
  5
A8C
  8
0
  6
BYBLOCK
 62
     0
 10
184.787246
 20
-17.395251
 30
0.0
 11
169.034052
 21
-17.395251
 31
0.0
  0
LINE
  5
A8D
  8
0
  6
BYBLOCK
 62
     0
 10
169.214052
 20
-11.395251
 30
0.0
 11
169.214052
 21
-3.395251
 31
0.0
  0
LINE
  5
A8E
  8
0
  6
BYBLOCK
 62
     0
 10
169.214052
 20
2.604749
 30
0.0
 11
169.214052
 21
14.854749
 31
0.0
  0
LINE
  5
A8F
  8
0
  6
BYBLOCK
 62
     0
 10
169.214052
 20
14.854749
 30
0.0
 11
175.214052
 21
14.854749
 31
0.0
  0
SOLID
  5
A90
  8
0
  6
BYBLOCK
 62
     0
 10
168.214052
 20
-11.395251
 30
0.0
 11
170.214052
 21
-11.395251
 31
0.0
 12
169.214052
 22
-17.395251
 32
0.0
 13
169.214052
 23
-17.395251
 33
0.0
  0
SOLID
  5
A91
  8
0
  6
BYBLOCK
 62
     0
 10
168.214052
 20
-3.395251
 30
0.0
 11
170.214052
 21
-3.395251
 31
0.0
 12
169.214052
 22
2.604749
 32
0.0
 13
169.214052
 23
2.604749
 33
0.0
  0
TEXT
  8
0
  40
7
  5
B32
  62
0
  72
0
  71
0
 10
168.464
 20
2.46475
 30
0.000000
  1
20
  0
POINT
  5
A93
  8
DEFPOINTS
  6
BYBLOCK
 62
     0
 10
184.849746
 20
2.604749
 30
0.0
  0
POINT
  5
A94
  8
DEFPOINTS
  6
BYBLOCK
 62
     0
 10
184.849746
 20
-17.395251
 30
0.0
  0
POINT
  5
A95
  8
DEFPOINTS
  6
BYBLOCK
 62
     0
 10
169.214052
 20
-17.395251
 30
0.0
  0
ENDBLK
  5
A96
  8
0
  0
BLOCK
  8
0
  2
*D6
 70
     1
 10
0.0
 20
0.0
 30
0.0
  3
*D6
  1

  0
LINE
  5
9BB
  8
0
  6
BYBLOCK
 62
     0
 10
67.127218
 20
-17.457751
 30
0.0
 11
67.127218
 21
-39.936733
 31
0.0
  0
LINE
  5
9BC
  8
0
  6
BYBLOCK
 62
     0
 10
187.127218
 20
-17.457751
 30
0.0
 11
187.127218
 21
-39.936733
 31
0.0
  0
LINE
  5
9BD
  8
0
  6
BYBLOCK
 62
     0
 10
73.127218
 20
-39.756733
 30
0.0
 11
117.543884
 21
-39.756733
 31
0.0
  0
LINE
  5
9BE
  8
0
  6
BYBLOCK
 62
     0
 10
181.127218
 20
-39.756733
 30
0.0
 11
136.710551
 21
-39.756733
 31
0.0
  0
SOLID
  5
9BF
  8
0
  6
BYBLOCK
 62
     0
 10
73.127218
 20
-38.756733
 30
0.0
 11
73.127218
 21
-40.756733
 31
0.0
 12
67.127218
 22
-39.756733
 32
0.0
 13
67.127218
 23
-39.756733
 33
0.0
  0
SOLID
  5
9C0
  8
0
  6
BYBLOCK
 62
     0
 10
181.127218
 20
-38.756733
 30
0.0
 11
181.127218
 21
-40.756733
 31
0.0
 12
187.127218
 22
-39.756733
 32
0.0
 13
187.127218
 23
-39.756733
 33
0.0
  0
TEXT
  8
0
  40
7
  5
B33
  62
0
  72
0
  71
0
 10
113.127
 20
-52.1467
 30
0.000000
  1
120
  0
POINT
  5
9C2
  8
DEFPOINTS
  6
BYBLOCK
 62
     0
 10
67.127218
 20
-17.395251
 30
0.0
  0
POINT
  5
9C3
  8
DEFPOINTS
  6
BYBLOCK
 62
     0
 10
187.127218
 20
-17.395251
 30
0.0
  0
POINT
  5
9C4
  8
DEFPOINTS
  6
BYBLOCK
 62
     0
 10
187.127218
 20
-39.756733
 30
0.0
  0
ENDBLK
  5
9C5
  8
0
  0
BLOCK
  8
0
  2
*D7
 70
     1
 10
0.0
 20
0.0
 30
0.0
  3
*D7
  1

  0
LINE
  5
9C7
  8
0
  6
BYBLOCK
 62
     0
 10
87.127218
 20
-17.457751
 30
0.0
 11
87.127218
 21
-28.024615
 31
0.0
  0
LINE
  5
9C8
  8
0
  6
BYBLOCK
 62
     0
 10
167.127218
 20
-17.457751
 30
0.0
 11
167.127218
 21
-28.024615
 31
0.0
  0
LINE
  5
9C9
  8
0
  6
BYBLOCK
 62
     0
 10
93.127218
 20
-27.844615
 30
0.0
 11
119.877218
 21
-27.844615
 31
0.0
  0
LINE
  5
9CA
  8
0
  6
BYBLOCK
 62
     0
 10
161.127218
 20
-27.844615
 30
0.0
 11
134.377218
 21
-27.844615
 31
0.0
  0
SOLID
  5
9CB
  8
0
  6
BYBLOCK
 62
     0
 10
93.127218
 20
-26.844615
 30
0.0
 11
93.127218
 21
-28.844615
 31
0.0
 12
87.127218
 22
-27.844615
 32
0.0
 13
87.127218
 23
-27.844615
 33
0.0
  0
SOLID
  5
9CC
  8
0
  6
BYBLOCK
 62
     0
 10
161.127218
 20
-26.844615
 30
0.0
 11
161.127218
 21
-28.844615
 31
0.0
 12
167.127218
 22
-27.844615
 32
0.0
 13
167.127218
 23
-27.844615
 33
0.0
  0
TEXT
  8
0
  40
7
  5
B34
  62
0
  72
0
  71
0
 10
113.127
 20
-40.2346
 30
0.000000
  1
80
  0
POINT
  5
9CE
  8
DEFPOINTS
  6
BYBLOCK
 62
     0
 10
87.127218
 20
-17.395251
 30
0.0
  0
POINT
  5
9CF
  8
DEFPOINTS
  6
BYBLOCK
 62
     0
 10
167.127218
 20
-17.395251
 30
0.0
  0
POINT
  5
9D0
  8
DEFPOINTS
  6
BYBLOCK
 62
     0
 10
167.127218
 20
-27.844615
 30
0.0
  0
ENDBLK
  5
9D1
  8
0
  0
BLOCK
  8
0
  2
*D8
 70
     1
 10
0.0
 20
0.0
 30
0.0
  3
*D8
  1

  0
LINE
  5
A22
  8
0
  6
BYBLOCK
 62
     0
 10
2.127218
 20
-22.457751
 30
0.0
 11
2.127218
 21
-34.377745
 31
0.0
  0
LINE
  5
A23
  8
0
  6
BYBLOCK
 62
     0
 10
52.127218
 20
-22.457751
 30
0.0
 11
52.127218
 21
-34.377745
 31
0.0
  0
LINE
  5
A24
  8
0
  6
BYBLOCK
 62
     0
 10
8.127218
 20
-34.197745
 30
0.0
 11
19.877218
 21
-34.197745
 31
0.0
  0
LINE
  5
A25
  8
0
  6
BYBLOCK
 62
     0
 10
46.127218
 20
-34.197745
 30
0.0
 11
34.377218
 21
-34.197745
 31
0.0
  0
SOLID
  5
A26
  8
0
  6
BYBLOCK
 62
     0
 10
8.127218
 20
-33.197745
 30
0.0
 11
8.127218
 21
-35.197745
 31
0.0
 12
2.127218
 22
-34.197745
 32
0.0
 13
2.127218
 23
-34.197745
 33
0.0
  0
SOLID
  5
A27
  8
0
  6
BYBLOCK
 62
     0
 10
46.127218
 20
-33.197745
 30
0.0
 11
46.127218
 21
-35.197745
 31
0.0
 12
52.127218
 22
-34.197745
 32
0.0
 13
52.127218
 23
-34.197745
 33
0.0
  0
TEXT
  8
0
  40
7
  5
B35
  62
0
  72
0
  71
0
 10
13.1272
 20
-46.5877
 30
0.000000
  1
50
  0
POINT
  5
A29
  8
DEFPOINTS
  6
BYBLOCK
 62
     0
 10
2.127218
 20
-22.395251
 30
0.0
  0
POINT
  5
A2A
  8
DEFPOINTS
  6
BYBLOCK
 62
     0
 10
52.127218
 20
-22.395251
 30
0.0
  0
POINT
  5
A2B
  8
DEFPOINTS
  6
BYBLOCK
 62
     0
 10
52.127218
 20
-34.197745
 30
0.0
  0
ENDBLK
  5
A2C
  8
0
  0
BLOCK
  8
0
  2
*D9
 70
     1
 10
0.0
 20
0.0
 30
0.0
  3
*D9
  1

  0
LINE
  5
A4E
  8
0
  6
BYBLOCK
 62
     0
 10
202.127218
 20
-22.457751
 30
0.0
 11
202.127218
 21
-33.583604
 31
0.0
  0
LINE
  5
A4F
  8
0
  6
BYBLOCK
 62
     0
 10
252.189718
 20
-22.457751
 30
0.0
 11
252.189718
 21
-33.583604
 31
0.0
  0
LINE
  5
A50
  8
0
  6
BYBLOCK
 62
     0
 10
208.127218
 20
-33.403604
 30
0.0
 11
219.908468
 21
-33.403604
 31
0.0
  0
LINE
  5
A51
  8
0
  6
BYBLOCK
 62
     0
 10
246.189718
 20
-33.403604
 30
0.0
 11
234.408468
 21
-33.403604
 31
0.0
  0
SOLID
  5
A52
  8
0
  6
BYBLOCK
 62
     0
 10
208.127218
 20
-32.403604
 30
0.0
 11
208.127218
 21
-34.403604
 31
0.0
 12
202.127218
 22
-33.403604
 32
0.0
 13
202.127218
 23
-33.403604
 33
0.0
  0
SOLID
  5
A53
  8
0
  6
BYBLOCK
 62
     0
 10
246.189718
 20
-32.403604
 30
0.0
 11
246.189718
 21
-34.403604
 31
0.0
 12
252.189718
 22
-33.403604
 32
0.0
 13
252.189718
 23
-33.403604
 33
0.0
  0
TEXT
  8
0
  40
7
  5
B36
  62
0
  72
0
  71
0
 10
213.158
 20
-45.7936
 30
0.000000
  1
50
  0
POINT
  5
A55
  8
DEFPOINTS
  6
BYBLOCK
 62
     0
 10
202.127218
 20
-22.395251
 30
0.0
  0
POINT
  5
A56
  8
DEFPOINTS
  6
BYBLOCK
 62
     0
 10
252.189718
 20
-22.395251
 30
0.0
  0
POINT
  5
A57
  8
DEFPOINTS
  6
BYBLOCK
 62
     0
 10
252.189718
 20
-33.403604
 30
0.0
  0
ENDBLK
  5
A58
  8
0
  0
BLOCK
  8
0
  2
*D10
 70
     1
 10
0.0
 20
0.0
 30
0.0
  3
*D10
  1

  0
LINE
  5
A7F
  8
0
  6
BYBLOCK
 62
     0
 10
122.127218
 20
2.667249
 30
0.0
 11
122.127218
 21
14.572117
 31
0.0
  0
LINE
  5
A80
  8
0
  6
BYBLOCK
 62
     0
 10
132.127218
 20
2.667249
 30
0.0
 11
132.127218
 21
14.572117
 31
0.0
  0
LINE
  5
A81
  8
0
  6
BYBLOCK
 62
     0
 10
116.127218
 20
14.392117
 30
0.0
 11
110.127218
 21
14.392117
 31
0.0
  0
LINE
  5
A82
  8
0
  6
BYBLOCK
 62
     0
 10
138.127218
 20
14.392117
 30
0.0
 11
144.127218
 21
14.392117
 31
0.0
  0
SOLID
  5
A83
  8
0
  6
BYBLOCK
 62
     0
 10
116.127218
 20
15.392117
 30
0.0
 11
116.127218
 21
13.392117
 31
0.0
 12
122.127218
 22
14.392117
 32
0.0
 13
122.127218
 23
14.392117
 33
0.0
  0
SOLID
  5
A84
  8
0
  6
BYBLOCK
 62
     0
 10
138.127218
 20
15.392117
 30
0.0
 11
138.127218
 21
13.392117
 31
0.0
 12
132.127218
 22
14.392117
 32
0.0
 13
132.127218
 23
14.392117
 33
0.0
  0
TEXT
  8
0
  40
7
  5
B37
  62
0
  72
0
  71
0
 10
136.627
 20
2.00212
 30
0.000000
  1
S0
  0
POINT
  5
A86
  8
DEFPOINTS
  6
BYBLOCK
 62
     0
 10
122.127218
 20
2.604749
 30
0.0
  0
POINT
  5
A87
  8
DEFPOINTS
  6
BYBLOCK
 62
     0
 10
132.127218
 20
2.604749
 30
0.0
  0
POINT
  5
A88
  8
DEFPOINTS
  6
BYBLOCK
 62
     0
 10
132.127218
 20
14.392117
 30
0.0
  0
ENDBLK
  5
A89
  8
0
  0
BLOCK
  8
0
  2
*D11
 70
     1
 10
0.0
 20
0.0
 30
0.0
  3
*D11
  1

  0
LINE
  5
9D3
  8
0
  6
BYBLOCK
 62
     0
 10
2.127218
 20
-22.457751
 30
0.0
 11
2.127218
 21
-53.119624
 31
0.0
  0
LINE
  5
9D4
  8
0
  6
BYBLOCK
 62
     0
 10
252.189718
 20
-22.457751
 30
0.0
 11
252.189718
 21
-53.119624
 31
0.0
  0
LINE
  5
9D5
  8
0
  6
BYBLOCK
 62
     0
 10
8.127218
 20
-52.939624
 30
0.0
 11
116.408468
 21
-52.939624
 31
0.0
  0
LINE
  5
9D6
  8
0
  6
BYBLOCK
 62
     0
 10
246.189718
 20
-52.939624
 30
0.0
 11
137.908468
 21
-52.939624
 31
0.0
  0
SOLID
  5
9D7
  8
0
  6
BYBLOCK
 62
     0
 10
8.127218
 20
-51.939624
 30
0.0
 11
8.127218
 21
-53.939624
 31
0.0
 12
2.127218
 22
-52.939624
 32
0.0
 13
2.127218
 23
-52.939624
 33
0.0
  0
SOLID
  5
9D8
  8
0
  6
BYBLOCK
 62
     0
 10
246.189718
 20
-51.939624
 30
0.0
 11
246.189718
 21
-53.939624
 31
0.0
 12
252.189718
 22
-52.939624
 32
0.0
 13
252.189718
 23
-52.939624
 33
0.0
  0
TEXT
  8
0
  40
7
  5
B38
  62
0
  72
0
  71
0
 10
113.158
 20
-65.3296
 30
0.000000
  1
250
  0
POINT
  5
9DA
  8
DEFPOINTS
  6
BYBLOCK
 62
     0
 10
2.127218
 20
-22.395251
 30
0.0
  0
POINT
  5
9DB
  8
DEFPOINTS
  6
BYBLOCK
 62
     0
 10
252.189718
 20
-22.395251
 30
0.0
  0
POINT
  5
9DC
  8
DEFPOINTS
  6
BYBLOCK
 62
     0
 10
252.189718
 20
-52.939624
 30
0.0
  0
ENDBLK
  5
9DD
  8
0
  0
BLOCK
  8
0
  2
_NONE
 70
     0
 10
0.0
 20
0.0
 30
0.0
  3
_NONE
  1

  0
CIRCLE
  5
302
  8
0
  6
BYBLOCK
 62
     0
 10
0.0
 20
0.0
 30
0.0
 40
0.25
  0
ENDBLK
  5
303
  8
0
  0
BLOCK
  8
0
  2
*D14
 70
     1
 10
0.0
 20
0.0
 30
0.0
  3
*D14
  1

  0
LINE
  5
A98
  8
0
  6
BYBLOCK
 62
     0
 10
257.08042
 20
-102.285213
 30
0.0
 11
275.982986
 21
-102.285213
 31
0.0
  0
LINE
  5
A99
  8
0
  6
BYBLOCK
 62
     0
 10
257.08042
 20
-132.285213
 30
0.0
 11
275.982986
 21
-132.285213
 31
0.0
  0
LINE
  5
A9A
  8
0
  6
BYBLOCK
 62
     0
 10
275.802986
 20
-108.285213
 30
0.0
 11
275.802986
 21
-112.95188
 31
0.0
  0
LINE
  5
A9B
  8
0
  6
BYBLOCK
 62
     0
 10
275.802986
 20
-126.285213
 30
0.0
 11
275.802986
 21
-121.618547
 31
0.0
  0
SOLID
  5
A9C
  8
0
  6
BYBLOCK
 62
     0
 10
274.802986
 20
-108.285213
 30
0.0
 11
276.802986
 21
-108.285213
 31
0.0
 12
275.802986
 22
-102.285213
 32
0.0
 13
275.802986
 23
-102.285213
 33
0.0
  0
SOLID
  5
A9D
  8
0
  6
BYBLOCK
 62
     0
 10
274.802986
 20
-126.285213
 30
0.0
 11
276.802986
 21
-126.285213
 31
0.0
 12
275.802986
 22
-132.285213
 32
0.0
 13
275.802986
 23
-132.285213
 33
0.0
  0
TEXT
  8
0
  40
7
  5
B39
  62
0
  72
0
  71
0
 10
261.803
 20
-129.675
 30
0.000000
  1
B
  0
POINT
  5
A9F
  8
DEFPOINTS
  6
BYBLOCK
 62
     0
 10
257.01792
 20
-102.285213
 30
0.0
  0
POINT
  5
AA0
  8
DEFPOINTS
  6
BYBLOCK
 62
     0
 10
257.01792
 20
-132.285213
 30
0.0
  0
POINT
  5
AA1
  8
DEFPOINTS
  6
BYBLOCK
 62
     0
 10
275.802986
 20
-132.285213
 30
0.0
  0
ENDBLK
  5
AA2
  8
0
  0
BLOCK
  8
0
  2
*D15
 70
     1
 10
0.0
 20
0.0
 30
0.0
  3
*D15
  1

  0
LINE
  5
A72
  8
0
  6
BYBLOCK
 62
     0
 10
189.677948
 20
-107.285213
 30
0.0
 11
176.841421
 21
-107.285213
 31
0.0
  0
LINE
  5
A73
  8
0
  6
BYBLOCK
 62
     0
 10
189.677948
 20
-127.285213
 30
0.0
 11
176.841421
 21
-127.285213
 31
0.0
  0
LINE
  5
A74
  8
0
  6
BYBLOCK
 62
     0
 10
177.021421
 20
-121.285213
 30
0.0
 11
177.021421
 21
-113.285213
 31
0.0
  0
LINE
  5
A75
  8
0
  6
BYBLOCK
 62
     0
 10
177.021421
 20
-107.285213
 30
0.0
 11
177.021421
 21
-95.035213
 31
0.0
  0
LINE
  5
A76
  8
0
  6
BYBLOCK
 62
     0
 10
177.021421
 20
-95.035213
 30
0.0
 11
183.021421
 21
-95.035213
 31
0.0
  0
SOLID
  5
A77
  8
0
  6
BYBLOCK
 62
     0
 10
176.021421
 20
-121.285213
 30
0.0
 11
178.021421
 21
-121.285213
 31
0.0
 12
177.021421
 22
-127.285213
 32
0.0
 13
177.021421
 23
-127.285213
 33
0.0
  0
SOLID
  5
A78
  8
0
  6
BYBLOCK
 62
     0
 10
176.021421
 20
-113.285213
 30
0.0
 11
178.021421
 21
-113.285213
 31
0.0
 12
177.021421
 22
-107.285213
 32
0.0
 13
177.021421
 23
-107.285213
 33
0.0
  0
TEXT
  8
0
  40
7
  5
B3A
  62
0
  72
0
  71
0
 10
173.355
 20
-107.425
 30
0.000000
  1
b
  0
POINT
  5
A7A
  8
DEFPOINTS
  6
BYBLOCK
 62
     0
 10
189.740448
 20
-107.285213
 30
0.0
  0
POINT
  5
A7B
  8
DEFPOINTS
  6
BYBLOCK
 62
     0
 10
189.740448
 20
-127.285213
 30
0.0
  0
POINT
  5
A7C
  8
DEFPOINTS
  6
BYBLOCK
 62
     0
 10
177.021421
 20
-127.285213
 30
0.0
  0
ENDBLK
  5
A7D
  8
0
  0
BLOCK
  8
0
  2
*D16
 70
     1
 10
0.0
 20
0.0
 30
0.0
  3
*D16
  1

  0
LINE
  5
9EB
  8
0
  6
BYBLOCK
 62
     0
 10
72.01792
 20
-127.347713
 30
0.0
 11
72.01792
 21
-149.826695
 31
0.0
  0
LINE
  5
9EC
  8
0
  6
BYBLOCK
 62
     0
 10
192.01792
 20
-127.347713
 30
0.0
 11
192.01792
 21
-149.826695
 31
0.0
  0
LINE
  5
9ED
  8
0
  6
BYBLOCK
 62
     0
 10
78.01792
 20
-149.646695
 30
0.0
 11
102.184586
 21
-149.646695
 31
0.0
  0
LINE
  5
9EE
  8
0
  6
BYBLOCK
 62
     0
 10
186.01792
 20
-149.646695
 30
0.0
 11
161.851253
 21
-149.646695
 31
0.0
  0
SOLID
  5
9EF
  8
0
  6
BYBLOCK
 62
     0
 10
78.01792
 20
-148.646695
 30
0.0
 11
78.01792
 21
-150.646695
 31
0.0
 12
72.01792
 22
-149.646695
 32
0.0
 13
72.01792
 23
-149.646695
 33
0.0
  0
SOLID
  5
9F0
  8
0
  6
BYBLOCK
 62
     0
 10
186.01792
 20
-148.646695
 30
0.0
 11
186.01792
 21
-150.646695
 31
0.0
 12
192.01792
 22
-149.646695
 32
0.0
 13
192.01792
 23
-149.646695
 33
0.0
  0
TEXT
  8
0
  40
7
  5
B3B
  62
0
  72
0
  71
0
 10
118.018
 20
-162.037
 30
0.000000
  1
Lc =L0+2b 
  0
POINT
  5
9F2
  8
DEFPOINTS
  6
BYBLOCK
 62
     0
 10
72.01792
 20
-127.285213
 30
0.0
  0
POINT
  5
9F3
  8
DEFPOINTS
  6
BYBLOCK
 62
     0
 10
192.01792
 20
-127.285213
 30
0.0
  0
POINT
  5
9F4
  8
DEFPOINTS
  6
BYBLOCK
 62
     0
 10
192.01792
 20
-149.646695
 30
0.0
  0
ENDBLK
  5
9F5
  8
0
  0
BLOCK
  8
0
  2
*D17
 70
     1
 10
0.0
 20
0.0
 30
0.0
  3
*D17
  1

  0
LINE
  5
9DF
  8
0
  6
BYBLOCK
 62
     0
 10
92.01792
 20
-127.347713
 30
0.0
 11
92.01792
 21
-137.914577
 31
0.0
  0
LINE
  5
9E0
  8
0
  6
BYBLOCK
 62
     0
 10
172.01792
 20
-127.347713
 30
0.0
 11
172.01792
 21
-137.914577
 31
0.0
  0
LINE
  5
9E1
  8
0
  6
BYBLOCK
 62
     0
 10
98.01792
 20
-137.734577
 30
0.0
 11
125.51792
 21
-137.734577
 31
0.0
  0
LINE
  5
9E2
  8
0
  6
BYBLOCK
 62
     0
 10
166.01792
 20
-137.734577
 30
0.0
 11
138.51792
 21
-137.734577
 31
0.0
  0
SOLID
  5
9E3
  8
0
  6
BYBLOCK
 62
     0
 10
98.01792
 20
-136.734577
 30
0.0
 11
98.01792
 21
-138.734577
 31
0.0
 12
92.01792
 22
-137.734577
 32
0.0
 13
92.01792
 23
-137.734577
 33
0.0
  0
SOLID
  5
9E4
  8
0
  6
BYBLOCK
 62
     0
 10
166.01792
 20
-136.734577
 30
0.0
 11
166.01792
 21
-138.734577
 31
0.0
 12
172.01792
 22
-137.734577
 32
0.0
 13
172.01792
 23
-137.734577
 33
0.0
  0
TEXT
  8
0
  40
7
  5
B3C
  62
0
  72
0
  71
0
 10
118.018
 20
-150.125
 30
0.000000
  1
L0
  0
POINT
  5
9E6
  8
DEFPOINTS
  6
BYBLOCK
 62
     0
 10
92.01792
 20
-127.285213
 30
0.0
  0
POINT
  5
9E7
  8
DEFPOINTS
  6
BYBLOCK
 62
     0
 10
172.01792
 20
-127.285213
 30
0.0
  0
POINT
  5
9E8
  8
DEFPOINTS
  6
BYBLOCK
 62
     0
 10
172.01792
 20
-137.734577
 30
0.0
  0
ENDBLK
  5
9E9
  8
0
  0
BLOCK
  8
0
  2
*D18
 70
     1
 10
0.0
 20
0.0
 30
0.0
  3
*D18
  1

  0
LINE
  5
A0F
  8
0
  6
BYBLOCK
 62
     0
 10
7.01792
 20
-132.347713
 30
0.0
 11
7.01792
 21
-144.267707
 31
0.0
  0
LINE
  5
A10
  8
0
  6
BYBLOCK
 62
     0
 10
57.01792
 20
-132.347713
 30
0.0
 11
57.01792
 21
-144.267707
 31
0.0
  0
LINE
  5
A11
  8
0
  6
BYBLOCK
 62
     0
 10
13.01792
 20
-144.087707
 30
0.0
 11
27.684586
 21
-144.087707
 31
0.0
  0
LINE
  5
A12
  8
0
  6
BYBLOCK
 62
     0
 10
51.01792
 20
-144.087707
 30
0.0
 11
36.351253
 21
-144.087707
 31
0.0
  0
SOLID
  5
A13
  8
0
  6
BYBLOCK
 62
     0
 10
13.01792
 20
-143.087707
 30
0.0
 11
13.01792
 21
-145.087707
 31
0.0
 12
7.01792
 22
-144.087707
 32
0.0
 13
7.01792
 23
-144.087707
 33
0.0
  0
SOLID
  5
A14
  8
0
  6
BYBLOCK
 62
     0
 10
51.01792
 20
-143.087707
 30
0.0
 11
51.01792
 21
-145.087707
 31
0.0
 12
57.01792
 22
-144.087707
 32
0.0
 13
57.01792
 23
-144.087707
 33
0.0
  0
TEXT
  8
0
  40
7
  5
B3D
  62
0
  72
0
  71
0
 10
18.0179
 20
-156.478
 30
0.000000
  1
h
  0
POINT
  5
A16
  8
DEFPOINTS
  6
BYBLOCK
 62
     0
 10
7.01792
 20
-132.285213
 30
0.0
  0
POINT
  5
A17
  8
DEFPOINTS
  6
BYBLOCK
 62
     0
 10
57.01792
 20
-132.285213
 30
0.0
  0
POINT
  5
A18
  8
DEFPOINTS
  6
BYBLOCK
 62
     0
 10
57.01792
 20
-144.087707
 30
0.0
  0
ENDBLK
  5
A19
  8
0
  0
BLOCK
  8
0
  2
*D19
 70
     1
 10
0.0
 20
0.0
 30
0.0
  3
*D19
  1

  0
LINE
  5
A5A
  8
0
  6
BYBLOCK
 62
     0
 10
207.01792
 20
-132.347713
 30
0.0
 11
207.01792
 21
-143.473566
 31
0.0
  0
LINE
  5
A5B
  8
0
  6
BYBLOCK
 62
     0
 10
257.08042
 20
-132.347713
 30
0.0
 11
257.08042
 21
-143.473566
 31
0.0
  0
LINE
  5
A5C
  8
0
  6
BYBLOCK
 62
     0
 10
213.01792
 20
-143.293566
 30
0.0
 11
227.715836
 21
-143.293566
 31
0.0
  0
LINE
  5
A5D
  8
0
  6
BYBLOCK
 62
     0
 10
251.08042
 20
-143.293566
 30
0.0
 11
236.382503
 21
-143.293566
 31
0.0
  0
SOLID
  5
A5E
  8
0
  6
BYBLOCK
 62
     0
 10
213.01792
 20
-142.293566
 30
0.0
 11
213.01792
 21
-144.293566
 31
0.0
 12
207.01792
 22
-143.293566
 32
0.0
 13
207.01792
 23
-143.293566
 33
0.0
  0
SOLID
  5
A5F
  8
0
  6
BYBLOCK
 62
     0
 10
251.08042
 20
-142.293566
 30
0.0
 11
251.08042
 21
-144.293566
 31
0.0
 12
257.08042
 22
-143.293566
 32
0.0
 13
257.08042
 23
-143.293566
 33
0.0
  0
TEXT
  8
0
  40
7
  5
B3E
  62
0
  72
0
  71
0
 10
218.049
 20
-155.684
 30
0.000000
  1
h
  0
POINT
  5
A61
  8
DEFPOINTS
  6
BYBLOCK
 62
     0
 10
207.01792
 20
-132.285213
 30
0.0
  0
POINT
  5
A62
  8
DEFPOINTS
  6
BYBLOCK
 62
     0
 10
257.08042
 20
-132.285213
 30
0.0
  0
POINT
  5
A63
  8
DEFPOINTS
  6
BYBLOCK
 62
     0
 10
257.08042
 20
-143.293566
 30
0.0
  0
ENDBLK
  5
A64
  8
0
  0
BLOCK
  8
0
  2
*D20
 70
     1
 10
0.0
 20
0.0
 30
0.0
  3
*D20
  1

  0
LINE
  5
A66
  8
0
  6
BYBLOCK
 62
     0
 10
127.01792
 20
-107.222713
 30
0.0
 11
127.01792
 21
-95.317845
 31
0.0
  0
LINE
  5
A67
  8
0
  6
BYBLOCK
 62
     0
 10
137.01792
 20
-107.222713
 30
0.0
 11
137.01792
 21
-95.317845
 31
0.0
  0
LINE
  5
A68
  8
0
  6
BYBLOCK
 62
     0
 10
121.01792
 20
-95.497845
 30
0.0
 11
115.01792
 21
-95.497845
 31
0.0
  0
LINE
  5
A69
  8
0
  6
BYBLOCK
 62
     0
 10
143.01792
 20
-95.497845
 30
0.0
 11
149.01792
 21
-95.497845
 31
0.0
  0
SOLID
  5
A6A
  8
0
  6
BYBLOCK
 62
     0
 10
121.01792
 20
-94.497845
 30
0.0
 11
121.01792
 21
-96.497845
 31
0.0
 12
127.01792
 22
-95.497845
 32
0.0
 13
127.01792
 23
-95.497845
 33
0.0
  0
SOLID
  5
A6B
  8
0
  6
BYBLOCK
 62
     0
 10
143.01792
 20
-94.497845
 30
0.0
 11
143.01792
 21
-96.497845
 31
0.0
 12
137.01792
 22
-95.497845
 32
0.0
 13
137.01792
 23
-95.497845
 33
0.0
  0
TEXT
  8
0
  40
7
  5
B3F
  62
0
  72
0
  71
0
 10
141.518
 20
-107.888
 30
0.000000
  1
S0
  0
POINT
  5
A6D
  8
DEFPOINTS
  6
BYBLOCK
 62
     0
 10
127.01792
 20
-107.285213
 30
0.0
  0
POINT
  5
A6E
  8
DEFPOINTS
  6
BYBLOCK
 62
     0
 10
137.01792
 20
-107.285213
 30
0.0
  0
POINT
  5
A6F
  8
DEFPOINTS
  6
BYBLOCK
 62
     0
 10
137.01792
 20
-95.497845
 30
0.0
  0
ENDBLK
  5
A70
  8
0
  0
BLOCK
  8
0
  2
*D21
 70
     1
 10
0.0
 20
0.0
 30
0.0
  3
*D21
  1

  0
LINE
  5
9F7
  8
0
  6
BYBLOCK
 62
     0
 10
7.01792
 20
-132.347713
 30
0.0
 11
7.01792
 21
-163.009586
 31
0.0
  0
LINE
  5
9F8
  8
0
  6
BYBLOCK
 62
     0
 10
257.08042
 20
-132.347713
 30
0.0
 11
257.08042
 21
-163.009586
 31
0.0
  0
LINE
  5
9F9
  8
0
  6
BYBLOCK
 62
     0
 10
13.01792
 20
-162.829586
 30
0.0
 11
125.215836
 21
-162.829586
 31
0.0
  0
LINE
  5
9FA
  8
0
  6
BYBLOCK
 62
     0
 10
251.08042
 20
-162.829586
 30
0.0
 11
138.882503
 21
-162.829586
 31
0.0
  0
SOLID
  5
9FB
  8
0
  6
BYBLOCK
 62
     0
 10
13.01792
 20
-161.829586
 30
0.0
 11
13.01792
 21
-163.829586
 31
0.0
 12
7.01792
 22
-162.829586
 32
0.0
 13
7.01792
 23
-162.829586
 33
0.0
  0
SOLID
  5
9FC
  8
0
  6
BYBLOCK
 62
     0
 10
251.08042
 20
-161.829586
 30
0.0
 11
251.08042
 21
-163.829586
 31
0.0
 12
257.08042
 22
-162.829586
 32
0.0
 13
257.08042
 23
-162.829586
 33
0.0
  0
TEXT
  8
0
  40
7
  5
B40
  62
0
  72
0
  71
0
 10
118.049
 20
-175.220
 30
0.000000
  1
Lt
  0
POINT
  5
9FE
  8
DEFPOINTS
  6
BYBLOCK
 62
     0
 10
7.01792
 20
-132.285213
 30
0.0
  0
POINT
  5
9FF
  8
DEFPOINTS
  6
BYBLOCK
 62
     0
 10
257.08042
 20
-132.285213
 30
0.0
  0
POINT
  5
A00
  8
DEFPOINTS
  6
BYBLOCK
 62
     0
 10
257.08042
 20
-162.829586
 30
0.0
  0
ENDBLK
  5
A01
  8
0
  0
BLOCK
  8
0
  2
*D23
 70
     1
 10
0.0
 20
0.0
 30
0.0
  3
*D23
  1

  0
LINE
  5
A2E
  8
0
  6
BYBLOCK
 62
     0
 10
60.848438
 20
16.182442
 30
0.0
 11
54.918364
 21
5.750078
 31
0.0
  0
TEXT
  8
0
  40
7
  5
B41
  62
0
  72
0
  71
0
 10
52.1608
 20
13.1381
 30
0.000000
  1
R20
  0
SOLID
  5
A30
  8
0
  6
BYBLOCK
 62
     0
 10
57.014037
 20
11.460433
 30
0.0
 11
58.752765
 21
10.472087
 31
0.0
 12
54.918364
 22
5.750078
 32
0.0
 13
54.918364
 23
5.750078
 33
0.0
  0
POINT
  5
A31
  8
DEFPOINTS
  6
BYBLOCK
 62
     0
 10
54.918364
 20
5.750078
 30
0.0
  0
POINT
  5
A32
  8
DEFPOINTS
  6
BYBLOCK
 62
     0
 10
66.823788
 20
26.694461
 30
0.0
  0
ENDBLK
  5
A33
  8
0
  0
BLOCK
  8
0
  2
*D24
 70
     1
 10
0.0
 20
0.0
 30
0.0
  3
*D24
  1

  0
LINE
  5
A1B
  8
0
  6
BYBLOCK
 62
     0
 10
67.018794
 20
-94.338112
 30
0.0
 11
62.358679
 21
-105.396292
 31
0.0
  0
TEXT
  8
0
  40
7
  5
B42
  62
0
  72
0
  71
0
 10
57.1935
 20
-96.8218
 30
0.000000
  1
R20
  0
SOLID
  5
A1D
  8
0
  6
BYBLOCK
 62
     0
 10
63.767222
 20
-99.478859
 30
0.0
 11
65.610252
 21
-100.255545
 31
0.0
 12
62.358679
 22
-105.396292
 32
0.0
 13
62.358679
 23
-105.396292
 33
0.0
  0
POINT
  5
A1E
  8
DEFPOINTS
  6
BYBLOCK
 62
     0
 10
62.358679
 20
-105.396292
 30
0.0
  0
POINT
  5
A1F
  8
DEFPOINTS
  6
BYBLOCK
 62
     0
 10
71.71449
 20
-83.195501
 30
0.0
  0
ENDBLK
  5
A20
  8
0
  0
BLOCK
  8
0
  2
*D25
 70
     1
 10
0.0
 20
0.0
 30
0.0
  3
*D25
  1

  0
LINE
  5
A35
  8
0
  6
BYBLOCK
 62
     0
 10
126.92282
 20
-218.789896
 30
0.0
 11
126.92282
 21
-207.32736
 31
0.0
  0
LINE
  5
A36
  8
0
  6
BYBLOCK
 62
     0
 10
135.648176
 20
-218.789896
 30
0.0
 11
135.648176
 21
-207.32736
 31
0.0
  0
LINE
  5
A37
  8
0
  6
BYBLOCK
 62
     0
 10
120.92282
 20
-207.50736
 30
0.0
 11
114.92282
 21
-207.50736
 31
0.0
  0
LINE
  5
A38
  8
0
  6
BYBLOCK
 62
     0
 10
141.648176
 20
-207.50736
 30
0.0
 11
147.648176
 21
-207.50736
 31
0.0
  0
SOLID
  5
A39
  8
0
  6
BYBLOCK
 62
     0
 10
120.92282
 20
-206.50736
 30
0.0
 11
120.92282
 21
-208.50736
 31
0.0
 12
126.92282
 22
-207.50736
 32
0.0
 13
126.92282
 23
-207.50736
 33
0.0
  0
SOLID
  5
A3A
  8
0
  6
BYBLOCK
 62
     0
 10
141.648176
 20
-206.50736
 30
0.0
 11
141.648176
 21
-208.50736
 31
0.0
 12
135.648176
 22
-207.50736
 32
0.0
 13
135.648176
 23
-207.50736
 33
0.0
  0
TEXT
  8
0
  40
7
  5
B43
  62
0
  72
0
  71
0
 10
140.148
 20
-219.897
 30
0.000000
  1
S0
  0
POINT
  5
A3C
  8
DEFPOINTS
  6
BYBLOCK
 62
     0
 10
126.92282
 20
-218.852396
 30
0.0
  0
POINT
  5
A3D
  8
DEFPOINTS
  6
BYBLOCK
 62
     0
 10
135.648176
 20
-218.852396
 30
0.0
  0
POINT
  5
A3E
  8
DEFPOINTS
  6
BYBLOCK
 62
     0
 10
135.648176
 20
-207.50736
 30
0.0
  0
ENDBLK
  5
A3F
  8
0
  0
BLOCK
  8
0
  2
*D26
 70
     1
 10
0.0
 20
0.0
 30
0.0
  3
*D26
  1

  0
LINE
  5
A03
  8
0
  6
BYBLOCK
 62
     0
 10
6.285498
 20
-237.337857
 30
0.0
 11
6.285498
 21
-254.085344
 31
0.0
  0
LINE
  5
A04
  8
0
  6
BYBLOCK
 62
     0
 10
256.285498
 20
-237.337857
 30
0.0
 11
256.285498
 21
-254.085344
 31
0.0
  0
LINE
  5
A05
  8
0
  6
BYBLOCK
 62
     0
 10
12.285498
 20
-253.905344
 30
0.0
 11
120.535498
 21
-253.905344
 31
0.0
  0
LINE
  5
A06
  8
0
  6
BYBLOCK
 62
     0
 10
250.285498
 20
-253.905344
 30
0.0
 11
142.035498
 21
-253.905344
 31
0.0
  0
SOLID
  5
A07
  8
0
  6
BYBLOCK
 62
     0
 10
12.285498
 20
-252.905344
 30
0.0
 11
12.285498
 21
-254.905344
 31
0.0
 12
6.285498
 22
-253.905344
 32
0.0
 13
6.285498
 23
-253.905344
 33
0.0
  0
SOLID
  5
A08
  8
0
  6
BYBLOCK
 62
     0
 10
250.285498
 20
-252.905344
 30
0.0
 11
250.285498
 21
-254.905344
 31
0.0
 12
256.285498
 22
-253.905344
 32
0.0
 13
256.285498
 23
-253.905344
 33
0.0
  0
TEXT
  8
0
  40
7
  5
B44
  62
0
  72
0
  71
0
 10
117.285
 20
-266.295
 30
0.000000
  1
250
  0
POINT
  5
A0A
  8
DEFPOINTS
  6
BYBLOCK
 62
     0
 10
6.285498
 20
-237.275357
 30
0.0
  0
POINT
  5
A0B
  8
DEFPOINTS
  6
BYBLOCK
 62
     0
 10
256.285498
 20
-237.275357
 30
0.0
  0
POINT
  5
A0C
  8
DEFPOINTS
  6
BYBLOCK
 62
     0
 10
256.285498
 20
-253.905344
 30
0.0
  0
ENDBLK
  5
A0D
  8
0
  0
BLOCK
  8
0
  2
*D27
 70
     1
 10
0.0
 20
0.0
 30
0.0
  3
*D27
  1

  0
LINE
  5
AE5
  8
0
  6
BYBLOCK
 62
     0
 10
254.958696
 20
-217.275357
 30
0.0
 11
279.529706
 21
-217.275357
 31
0.0
  0
LINE
  5
AE6
  8
0
  6
BYBLOCK
 62
     0
 10
256.347998
 20
-237.275357
 30
0.0
 11
279.529706
 21
-237.275357
 31
0.0
  0
LINE
  5
AE7
  8
0
  6
BYBLOCK
 62
     0
 10
279.349706
 20
-223.275357
 30
0.0
 11
279.349706
 21
-231.275357
 31
0.0
  0
LINE
  5
AE8
  8
0
  6
BYBLOCK
 62
     0
 10
279.349706
 20
-237.275357
 30
0.0
 11
279.349706
 21
-243.275357
 31
0.0
  0
LINE
  5
AE9
  8
0
  6
BYBLOCK
 62
     0
 10
279.349706
 20
-243.275357
 30
0.0
 11
273.349706
 21
-243.275357
 31
0.0
  0
SOLID
  5
AEA
  8
0
  6
BYBLOCK
 62
     0
 10
278.349706
 20
-223.275357
 30
0.0
 11
280.349706
 21
-223.275357
 31
0.0
 12
279.349706
 22
-217.275357
 32
0.0
 13
279.349706
 23
-217.275357
 33
0.0
  0
SOLID
  5
AEB
  8
0
  6
BYBLOCK
 62
     0
 10
278.349706
 20
-231.275357
 30
0.0
 11
280.349706
 21
-231.275357
 31
0.0
 12
279.349706
 22
-237.275357
 32
0.0
 13
279.349706
 23
-237.275357
 33
0.0
  0
TEXT
  8
0
  40
7
  5
B45
  62
0
  72
0
  71
0
 10
252.100
 20
-255.665
 30
0.000000
  1
20
  0
POINT
  5
AED
  8
DEFPOINTS
  6
BYBLOCK
 62
     0
 10
254.896196
 20
-217.275357
 30
0.0
  0
POINT
  5
AEE
  8
DEFPOINTS
  6
BYBLOCK
 62
     0
 10
256.285498
 20
-237.275357
 30
0.0
  0
POINT
  5
AEF
  8
DEFPOINTS
  6
BYBLOCK
 62
     0
 10
279.349706
 20
-237.275357
 30
0.0
  0
ENDBLK
  5
AF0
  8
0
  0
BLOCK
  8
0
 62
     6
  2
*X28
 70
     1
 10
0.0
 20
0.0
 30
0.0
  3
*X28
  1

  0
LINE
  5
AF7
  8
0
  6
CONTINUOUS
 62
     0
 10
131.097173
 20
-17.395251
 30
0.0
 11
132.127218
 21
-16.365207
 31
0.0
  0
LINE
  5
AF8
  8
0
  6
CONTINUOUS
 62
     0
 10
128.975852
 20
-17.395251
 30
0.0
 11
132.127218
 21
-14.243886
 31
0.0
  0
LINE
  5
AF9
  8
0
  6
CONTINUOUS
 62
     0
 10
126.854532
 20
-17.395251
 30
0.0
 11
132.127218
 21
-12.122566
 31
0.0
  0
LINE
  5
AFA
  8
0
  6
CONTINUOUS
 62
     0
 10
124.733212
 20
-17.395251
 30
0.0
 11
132.127218
 21
-10.001245
 31
0.0
  0
LINE
  5
AFB
  8
0
  6
CONTINUOUS
 62
     0
 10
122.611891
 20
-17.395251
 30
0.0
 11
132.127218
 21
-7.879925
 31
0.0
  0
LINE
  5
AFC
  8
0
  6
CONTINUOUS
 62
     0
 10
130.490571
 20
-7.395251
 30
0.0
 11
132.127218
 21
-5.758605
 31
0.0
  0
LINE
  5
AFD
  8
0
  6
CONTINUOUS
 62
     0
 10
122.127218
 20
-15.758605
 30
0.0
 11
130.490571
 21
-7.395251
 31
0.0
  0
LINE
  5
AFE
  8
0
  6
CONTINUOUS
 62
     0
 10
128.369251
 20
-7.395251
 30
0.0
 11
132.127218
 21
-3.637284
 31
0.0
  0
LINE
  5
AFF
  8
0
  6
CONTINUOUS
 62
     0
 10
122.127218
 20
-13.637284
 30
0.0
 11
128.369251
 21
-7.395251
 31
0.0
  0
LINE
  5
B00
  8
0
  6
CONTINUOUS
 62
     0
 10
126.24793
 20
-7.395251
 30
0.0
 11
132.127218
 21
-1.515964
 31
0.0
  0
LINE
  5
B01
  8
0
  6
CONTINUOUS
 62
     0
 10
122.127218
 20
-11.515964
 30
0.0
 11
126.24793
 21
-7.395251
 31
0.0
  0
LINE
  5
B02
  8
0
  6
CONTINUOUS
 62
     0
 10
124.12661
 20
-7.395251
 30
0.0
 11
132.127218
 21
0.605356
 31
0.0
  0
LINE
  5
B03
  8
0
  6
CONTINUOUS
 62
     0
 10
122.127218
 20
-9.394644
 30
0.0
 11
124.12661
 21
-7.395251
 31
0.0
  0
LINE
  5
B04
  8
0
  6
CONTINUOUS
 62
     0
 10
122.127218
 20
-7.273323
 30
0.0
 11
132.00529
 21
2.604749
 31
0.0
  0
LINE
  5
B05
  8
0
  6
CONTINUOUS
 62
     0
 10
122.127218
 20
-5.152003
 30
0.0
 11
129.883969
 21
2.604749
 31
0.0
  0
LINE
  5
B06
  8
0
  6
CONTINUOUS
 62
     0
 10
122.127218
 20
-3.030683
 30
0.0
 11
127.762649
 21
2.604749
 31
0.0
  0
LINE
  5
B07
  8
0
  6
CONTINUOUS
 62
     0
 10
122.127218
 20
-0.909362
 30
0.0
 11
125.641329
 21
2.604749
 31
0.0
  0
LINE
  5
B08
  8
0
  6
CONTINUOUS
 62
     0
 10
122.127218
 20
1.211958
 30
0.0
 11
123.520008
 21
2.604749
 31
0.0
  0
ENDBLK
  5
B0A
  8
0
 62
     6
  0
BLOCK
  8
0
 62
     6
  2
*X29
 70
     1
 10
0.0
 20
0.0
 30
0.0
  3
*X29
  1

  0
LINE
  5
B0C
  8
0
  6
CONTINUOUS
 62
     0
 10
135.987875
 20
-127.285213
 30
0.0
 11
137.01792
 21
-126.255169
 31
0.0
  0
LINE
  5
B0D
  8
0
  6
CONTINUOUS
 62
     0
 10
133.866554
 20
-127.285213
 30
0.0
 11
137.01792
 21
-124.133848
 31
0.0
  0
LINE
  5
B0E
  8
0
  6
CONTINUOUS
 62
     0
 10
131.745234
 20
-127.285213
 30
0.0
 11
137.01792
 21
-122.012528
 31
0.0
  0
LINE
  5
B0F
  8
0
  6
CONTINUOUS
 62
     0
 10
129.623914
 20
-127.285213
 30
0.0
 11
137.01792
 21
-119.891207
 31
0.0
  0
LINE
  5
B10
  8
0
  6
CONTINUOUS
 62
     0
 10
127.502593
 20
-127.285213
 30
0.0
 11
137.01792
 21
-117.769887
 31
0.0
  0
LINE
  5
B11
  8
0
  6
CONTINUOUS
 62
     0
 10
135.381273
 20
-117.285213
 30
0.0
 11
137.01792
 21
-115.648567
 31
0.0
  0
LINE
  5
B12
  8
0
  6
CONTINUOUS
 62
     0
 10
127.01792
 20
-125.648567
 30
0.0
 11
135.381273
 21
-117.285213
 31
0.0
  0
LINE
  5
B13
  8
0
  6
CONTINUOUS
 62
     0
 10
133.259953
 20
-117.285213
 30
0.0
 11
137.01792
 21
-113.527246
 31
0.0
  0
LINE
  5
B14
  8
0
  6
CONTINUOUS
 62
     0
 10
127.01792
 20
-123.527246
 30
0.0
 11
133.259953
 21
-117.285213
 31
0.0
  0
LINE
  5
B15
  8
0
  6
CONTINUOUS
 62
     0
 10
131.138632
 20
-117.285213
 30
0.0
 11
137.01792
 21
-111.405926
 31
0.0
  0
LINE
  5
B16
  8
0
  6
CONTINUOUS
 62
     0
 10
127.01792
 20
-121.405926
 30
0.0
 11
131.138632
 21
-117.285213
 31
0.0
  0
LINE
  5
B17
  8
0
  6
CONTINUOUS
 62
     0
 10
129.017312
 20
-117.285213
 30
0.0
 11
137.01792
 21
-109.284606
 31
0.0
  0
LINE
  5
B18
  8
0
  6
CONTINUOUS
 62
     0
 10
127.01792
 20
-119.284606
 30
0.0
 11
129.017312
 21
-117.285213
 31
0.0
  0
LINE
  5
B19
  8
0
  6
CONTINUOUS
 62
     0
 10
127.01792
 20
-117.163285
 30
0.0
 11
136.895992
 21
-107.285213
 31
0.0
  0
LINE
  5
B1A
  8
0
  6
CONTINUOUS
 62
     0
 10
127.01792
 20
-115.041965
 30
0.0
 11
134.774671
 21
-107.285213
 31
0.0
  0
LINE
  5
B1B
  8
0
  6
CONTINUOUS
 62
     0
 10
127.01792
 20
-112.920645
 30
0.0
 11
132.653351
 21
-107.285213
 31
0.0
  0
LINE
  5
B1C
  8
0
  6
CONTINUOUS
 62
     0
 10
127.01792
 20
-110.799324
 30
0.0
 11
130.532031
 21
-107.285213
 31
0.0
  0
LINE
  5
B1D
  8
0
  6
CONTINUOUS
 62
     0
 10
127.01792
 20
-108.678004
 30
0.0
 11
128.41071
 21
-107.285213
 31
0.0
  0
ENDBLK
  5
B1F
  8
0
 62
     6
  0
BLOCK
  8
0
 62
     6
  2
*X30
 70
     1
 10
0.0
 20
0.0
 30
0.0
  3
*X30
  1

  0
LINE
  5
B21
  8
0
  6
CONTINUOUS
 62
     0
 10
133.955703
 20
-237.275357
 30
0.0
 11
135.648176
 21
-235.582884
 31
0.0
  0
LINE
  5
B22
  8
0
  6
CONTINUOUS
 62
     0
 10
131.834383
 20
-237.275357
 30
0.0
 11
135.648176
 21
-233.461563
 31
0.0
  0
LINE
  5
B23
  8
0
  6
CONTINUOUS
 62
     0
 10
129.713062
 20
-237.275357
 30
0.0
 11
135.648176
 21
-231.340243
 31
0.0
  0
LINE
  5
B24
  8
0
  6
CONTINUOUS
 62
     0
 10
127.591742
 20
-237.275357
 30
0.0
 11
135.648176
 21
-229.218923
 31
0.0
  0
LINE
  5
B25
  8
0
  6
CONTINUOUS
 62
     0
 10
126.92282
 20
-235.822959
 30
0.0
 11
135.648176
 21
-227.097602
 31
0.0
  0
LINE
  5
B26
  8
0
  6
CONTINUOUS
 62
     0
 10
126.92282
 20
-233.701638
 30
0.0
 11
135.648176
 21
-224.976282
 31
0.0
  0
LINE
  5
B27
  8
0
  6
CONTINUOUS
 62
     0
 10
126.92282
 20
-231.580318
 30
0.0
 11
135.648176
 21
-222.854962
 31
0.0
  0
LINE
  5
B28
  8
0
  6
CONTINUOUS
 62
     0
 10
126.92282
 20
-229.458998
 30
0.0
 11
135.648176
 21
-220.733641
 31
0.0
  0
LINE
  5
B29
  8
0
  6
CONTINUOUS
 62
     0
 10
126.92282
 20
-227.337677
 30
0.0
 11
135.648176
 21
-218.612321
 31
0.0
  0
LINE
  5
B2A
  8
0
  6
CONTINUOUS
 62
     0
 10
126.92282
 20
-225.216357
 30
0.0
 11
134.86382
 21
-217.275357
 31
0.0
  0
LINE
  5
B2B
  8
0
  6
CONTINUOUS
 62
     0
 10
126.92282
 20
-223.095037
 30
0.0
 11
132.7425
 21
-217.275357
 31
0.0
  0
LINE
  5
B2C
  8
0
  6
CONTINUOUS
 62
     0
 10
126.92282
 20
-220.973716
 30
0.0
 11
130.621179
 21
-217.275357
 31
0.0
  0
LINE
  5
B2D
  8
0
  6
CONTINUOUS
 62
     0
 10
126.92282
 20
-218.852396
 30
0.0
 11
128.499859
 21
-217.275357
 31
0.0
  0
ENDBLK
  5
B2F
  8
0
 62
     6
  0
ENDSEC
  0
SECTION
  2
ENTITIES
  0
LINE
  5
4D
  8
0
 62
     6
 10
2.127218
 20
7.604749
 30
0.0
 11
52.127218
 21
7.604749
 31
0.0
  0
LINE
  5
4E
  8
0
 62
     6
 10
52.127218
 20
7.604749
 30
0.0
 11
52.127218
 21
-22.395251
 31
0.0
  0
LINE
  5
4F
  8
0
 62
     6
 10
52.127218
 20
-22.395251
 30
0.0
 11
2.127218
 21
-22.395251
 31
0.0
  0
LINE
  5
50
  8
0
 62
     6
 10
2.127218
 20
-22.395251
 30
0.0
 11
2.127218
 21
7.604749
 31
0.0
  0
LINE
  5
78
  8
0
  6
CONTINUOUS
 62
     6
 10
67.127218
 20
2.604749
 30
0.0
 11
187.127218
 21
2.604749
 31
0.0
1001
ACAD
1000
ASC_BOUNDS
1002
{
1070
    19
1005
4C2
1002
}
  0
LINE
  5
79
  8
0
  6
CONTINUOUS
 62
     6
 10
67.127218
 20
-17.395251
 30
0.0
 11
187.127218
 21
-17.395251
 31
0.0
1001
ACAD
1000
ASC_BOUNDS
1002
{
1070
    19
1005
4C2
1002
}
  0
LINE
  5
7B
  8
0
 62
     6
 10
202.127218
 20
7.604749
 30
0.0
 11
202.127218
 21
-22.395251
 31
0.0
  0
LINE
  5
7C
  8
0
 62
     6
 10
252.127218
 20
-22.395251
 30
0.0
 11
252.127218
 21
7.604749
 31
0.0
  0
LINE
  5
7D
  8
0
 62
     6
 10
202.127218
 20
-22.395251
 30
0.0
 11
252.127218
 21
-22.395251
 31
0.0
  0
LINE
  5
7E
  8
0
 62
     6
 10
252.127218
 20
7.604749
 30
0.0
 11
202.127218
 21
7.604749
 31
0.0
  0
ARC
  5
8C
  8
0
  6
CONTINUOUS
 62
     6
 10
66.823788
 20
-41.484963
 30
0.0
 40
24.091623
 50
89.278352
 51
127.591546
  0
ARC
  5
8D
  8
0
  6
CONTINUOUS
 62
     6
 10
66.823788
 20
26.694461
 30
0.0
 40
24.091623
 50
232.408454
 51
270.721648
  0
LINE
  5
8E
  8
0
 62
     6
 10
202.127218
 20
7.604749
 30
0.0
 11
202.127218
 21
-22.395251
 31
0.0
  0
ARC
  5
8F
  8
0
  6
CONTINUOUS
 62
     6
 10
187.430647
 20
-41.484963
 30
0.0
 40
24.091623
 50
52.408454
 51
90.721648
  0
ARC
  5
90
  8
0
  6
CONTINUOUS
 62
     6
 10
187.430647
 20
26.694461
 30
0.0
 40
24.091623
 50
269.278352
 51
307.591546
  0
LINE
  5
93
  8
0
  6
CENTER
 62
     6
 10
-11.242849
 20
-7.395251
 30
0.0
 11
265.497284
 21
-7.395251
 31
0.0
1001
ACAD
1000
ASC_BOUNDS
1002
{
1070
    19
1005
4C2
1005
4C2
1002
}
  0
LINE
  5
97
  8
0
  6
CONTINUOUS
 62
     6
 10
132.127218
 20
-17.395251
 30
0.0
 11
132.127218
 21
2.604749
 31
0.0
1001
ACAD
1000
ASC_BOUNDS
1002
{
1070
    19
1005
4C2
1005
4C2
1002
}
  0
LINE
  5
98
  8
0
  6
CONTINUOUS
 62
     6
 10
122.127218
 20
-17.395251
 30
0.0
 11
122.127218
 21
2.604749
 31
0.0
1001
ACAD
1000
ASC_BOUNDS
1002
{
1070
    19
1005
4C2
1005
4C2
1002
}
  0
DIMENSION
  5
DB
  8
0
  6
CONTINUOUS
 62
     6
  2
*D4
 10
270.912284
 20
-22.395251
 30
0.0
 11
270.912284
 21
-7.395251
 31
0.0
 70
     0
 13
252.127218
 23
7.604749
 33
0.0
 14
252.127218
 24
-22.395251
 34
0.0
 50
90.0
1001
ACAD
1000
DSTYLE
1002
{
1070
   140
1040
6.0
1070
   147
1040
2.0
1070
   271
1070
     0
1070
    41
1040
6.0
1002
}
  0
DIMENSION
  5
F5
  8
0
  6
CONTINUOUS
 62
     6
  2
*D5
 10
169.214052
 20
-17.395251
 30
0.0
 11
182.464052
 21
14.854749
 31
0.0
 70
   128
 13
184.849746
 23
2.604749
 33
0.0
 14
184.849746
 24
-17.395251
 34
0.0
 50
90.0
1001
ACAD
1000
DSTYLE
1002
{
1070
   140
1040
6.0
1070
    73
1070
     0
1070
   147
1040
2.0
1070
   271
1070
     0
1070
    41
1040
6.0
1002
}
  0
DIMENSION
  5
103
  8
0
  6
CONTINUOUS
 62
     6
  2
*D6
 10
187.127218
 20
-39.756733
 30
0.0
 11
127.127218
 21
-39.756733
 31
0.0
 70
     0
 13
67.127218
 23
-17.395251
 33
0.0
 14
187.127218
 24
-17.395251
 34
0.0
1001
ACAD
1000
DSTYLE
1002
{
1070
   140
1040
6.0
1070
    73
1070
     0
1070
   147
1040
2.0
1070
   271
1070
     0
1070
    41
1040
6.0
1002
}
  0
DIMENSION
  5
117
  8
0
  6
CONTINUOUS
 62
     6
  2
*D7
 10
167.127218
 20
-27.844615
 30
0.0
 11
127.127218
 21
-27.844615
 31
0.0
 70
     0
 13
87.127218
 23
-17.395251
 33
0.0
 14
167.127218
 24
-17.395251
 34
0.0
1001
ACAD
1000
DSTYLE
1002
{
1070
   140
1040
6.0
1070
    73
1070
     0
1070
   147
1040
2.0
1070
   271
1070
     0
1070
    41
1040
6.0
1002
}
  0
DIMENSION
  5
125
  8
0
  6
CONTINUOUS
 62
     6
  2
*D8
 10
52.127218
 20
-34.197745
 30
0.0
 11
27.127218
 21
-34.197745
 31
0.0
 70
     0
 13
2.127218
 23
-22.395251
 33
0.0
 14
52.127218
 24
-22.395251
 34
0.0
1001
ACAD
1000
DSTYLE
1002
{
1070
   140
1040
6.0
1070
    73
1070
     0
1070
   147
1040
2.0
1070
   271
1070
     0
1070
    41
1040
6.0
1002
}
  0
DIMENSION
  5
133
  8
0
  6
CONTINUOUS
 62
     6
  2
*D9
 10
252.189718
 20
-33.403604
 30
0.0
 11
227.158468
 21
-33.403604
 31
0.0
 70
     0
 13
202.127218
 23
-22.395251
 33
0.0
 14
252.189718
 24
-22.395251
 34
0.0
1001
ACAD
1000
DSTYLE
1002
{
1070
   140
1040
6.0
1070
    73
1070
     0
1070
   147
1040
2.0
1070
   271
1070
     0
1070
    41
1040
6.0
1002
}
  0
DIMENSION
  5
142
  8
0
  6
CONTINUOUS
 62
     6
  2
*D10
 10
132.127218
 20
14.392117
 30
0.0
 11
150.627218
 21
14.392117
 31
0.0
 70
     0
  1
S\H4;0
 13
122.127218
 23
2.604749
 33
0.0
 14
132.127218
 24
2.604749
 34
0.0
1001
ACAD
1000
DSTYLE
1002
{
1070
   140
1040
6.0
1070
    73
1070
     0
1070
   147
1040
2.0
1070
   271
1070
     0
1070
    41
1040
6.0
1002
}
  0
DIMENSION
  5
150
  8
0
  6
CONTINUOUS
 62
     6
  2
*D11
 10
252.189718
 20
-52.939624
 30
0.0
 11
127.158468
 21
-52.939624
 31
0.0
 70
     0
 13
2.127218
 23
-22.395251
 33
0.0
 14
252.189718
 24
-22.395251
 34
0.0
1001
ACAD
1000
DSTYLE
1002
{
1070
   140
1040
6.0
1070
    73
1070
     0
1070
   147
1040
2.0
1070
   271
1070
     0
1070
    41
1040
6.0
1002
}
  0
POLYLINE
  8
0
  5
B46
  62
6
  66
     1
 10
0.000000
 20
0.000000
 30
0.000000
  70
     8
  0
VERTEX
  8
0
  5
B47
 10
75.7742
 20
2.60475
 30
0.000000
  70
    32
  0
VERTEX
  8
0
  5
B48
 10
78.3161
 20
18.1661
 30
0.000000
  70
    32
  0
VERTEX
  8
0
  5
B49
 10
84.3161
 20
18.1661
 30
0.000000
  70
    32
  0
SEQEND
  8
0
  5
B4A
  0
TEXT
  8
0
  40
6
  5
B4B
  62
6
  72
0
  71
0
 10
74.3161
 20
7.54608
 30
0.000000
  1
Rz 6,3
  0
INSERT
  5
4C2
  8
0
  6
CONTINUOUS
 62
     6
  2
*X28
 10
0.0
 20
0.0
 30
0.0
1001
ACAD
1000
HATCH
1002
{
1070
    19
1000
ANSI31
1040
12.0
1040
0.0
1000
ASC_BOUNDS
1070
     2
1070
     1
1070
     4
1005
97
1005
79
1005
98
1005
93
1070
     1
1070
     4
1005
97
1005
93
1005
98
1005
78
1000
ASC_SEEDPOINT
1011
128.797531
1021
0.0
1031
0.0
1021
-1.776914
1031
0.0
1000
R14_HATCH_DATA
1000
4C2
1011
1.0
1021
0.0
1031
0.0
1021
0.0
1031
0.0
1011
0.0
1021
0.0
1031
0.0
1021
1.0
1031
0.0
1011
0.0
1021
0.0
1031
0.0
1021
0.0
1031
1.0
1040
0.0
1010
0.0
1020
0.0
1030
1.0
1000
ANSI31
1070
     0
1070
     1
1071
        2
1071
        7
1070
     0
1070
     1
1071
        4
1040
132.127218
1040
2.604749
1040
122.127218
1040
2.604749
1040
122.127218
1040
-7.395251
1040
132.127218
1040
-7.395251
1071
        4
1005
78
1005
98
1005
93
1005
97
1071
        7
1070
     0
1070
     1
1071
        4
1040
122.127218
1040
-7.395251
1040
122.127218
1040
-17.395251
1040
132.127218
1040
-17.395251
1040
132.127218
1040
-7.395251
1071
        4
1005
93
1005
98
1005
79
1005
97
1070
     0
1070
     1
1040
0.0
1040
12.0
1070
     0
1070
     1
1040
0.785398
1040
0.0
1040
0.0
1040
-1.06066
1040
1.06066
1070
     0
1040
0.407
1071
        2
1040
128.797531
1040
-1.776914
1040
0.0
1040
127.574855
1040
-11.13791
1040
0.0
1002
}
  0
LINE
  5
4C3
  8
0
 62
     6
 10
7.01792
 20
-102.285213
 30
0.0
 11
57.01792
 21
-102.285213
 31
0.0
  0
LINE
  5
4C4
  8
0
  6
CENTER
 62
     6
 10
-6.352147
 20
-117.285213
 30
0.0
 11
270.387986
 21
-117.285213
 31
0.0
1001
ACAD
1000
ASC_BOUNDS
1002
{
1070
    19
1005
4CD
1005
4CD
1002
}
  0
LINE
  5
4C5
  8
0
 62
     6
 10
7.01792
 20
-132.285213
 30
0.0
 11
7.01792
 21
-102.285213
 31
0.0
  0
LINE
  5
4C6
  8
0
 62
     6
 10
57.01792
 20
-132.285213
 30
0.0
 11
7.01792
 21
-132.285213
 31
0.0
  0
LINE
  5
4C7
  8
0
 62
     6
 10
57.01792
 20
-102.285213
 30
0.0
 11
57.01792
 21
-132.285213
 31
0.0
  0
ARC
  5
4C8
  8
0
  6
CONTINUOUS
 62
     6
 10
71.71449
 20
-151.374925
 30
0.0
 40
24.091623
 50
89.278352
 51
127.591546
  0
ARC
  5
4C9
  8
0
  6
CONTINUOUS
 62
     6
 10
71.71449
 20
-83.195501
 30
0.0
 40
24.091623
 50
232.408454
 51
270.721648
  0
LINE
  5
4CA
  8
0
  6
CONTINUOUS
 62
     6
 10
72.01792
 20
-107.285213
 30
0.0
 11
192.01792
 21
-107.285213
 31
0.0
1001
ACAD
1000
ASC_BOUNDS
1002
{
1070
    19
1005
4CD
1002
}
  0
LINE
  5
4CB
  8
0
  6
CONTINUOUS
 62
     6
 10
72.01792
 20
-127.285213
 30
0.0
 11
192.01792
 21
-127.285213
 31
0.0
1001
ACAD
1000
ASC_BOUNDS
1002
{
1070
    19
1005
4CD
1002
}
  0
DIMENSION
  5
4CC
  8
0
  6
CONTINUOUS
 62
     6
  2
*D20
 10
137.01792
 20
-95.497845
 30
0.0
 11
155.51792
 21
-95.497845
 31
0.0
 70
     0
  1
S\H4;0
 13
127.01792
 23
-107.285213
 33
0.0
 14
137.01792
 24
-107.285213
 34
0.0
1001
ACAD
1000
DSTYLE
1002
{
1070
   140
1040
6.0
1070
    73
1070
     0
1070
   147
1040
2.0
1070
   271
1070
     0
1070
    41
1040
6.0
1002
}
  0
INSERT
  5
4CD
  8
0
  6
CONTINUOUS
 62
     6
  2
*X29
 10
0.0
 20
0.0
 30
0.0
1001
ACAD
1000
HATCH
1002
{
1070
    19
1000
ANSI31
1040
12.0
1040
0.0
1000
ASC_BOUNDS
1070
     2
1070
     1
1070
     4
1005
4CF
1005
4CB
1005
4CE
1005
4C4
1070
     1
1070
     4
1005
4CF
1005
4C4
1005
4CE
1005
4CA
1000
ASC_SEEDPOINT
1011
133.688233
1021
0.0
1031
0.0
1021
-111.666876
1031
0.0
1000
R14_HATCH_DATA
1000
4CD
1011
1.0
1021
0.0
1031
0.0
1021
0.0
1031
0.0
1011
0.0
1021
0.0
1031
0.0
1021
1.0
1031
0.0
1011
0.0
1021
0.0
1031
0.0
1021
0.0
1031
1.0
1040
0.0
1010
0.0
1020
0.0
1030
1.0
1000
ANSI31
1070
     0
1070
     1
1071
        2
1071
        7
1070
     0
1070
     1
1071
        4
1040
137.01792
1040
-107.285213
1040
127.01792
1040
-107.285213
1040
127.01792
1040
-117.285213
1040
137.01792
1040
-117.285213
1071
        4
1005
4CA
1005
4CE
1005
4C4
1005
4CF
1071
        7
1070
     0
1070
     1
1071
        4
1040
127.01792
1040
-117.285213
1040
127.01792
1040
-127.285213
1040
137.01792
1040
-127.285213
1040
137.01792
1040
-117.285213
1071
        4
1005
4C4
1005
4CE
1005
4CB
1005
4CF
1070
     0
1070
     1
1040
0.0
1040
12.0
1070
     0
1070
     1
1040
0.785398
1040
4.890702
1040
-109.889962
1040
-1.06066
1040
1.06066
1070
     0
1040
0.407
1071
        2
1040
133.688233
1040
-111.666876
1040
0.0
1040
132.465558
1040
-121.027872
1040
0.0
1002
}
  0
LINE
  5
4CE
  8
0
  6
CONTINUOUS
 62
     6
 10
127.01792
 20
-127.285213
 30
0.0
 11
127.01792
 21
-107.285213
 31
0.0
1001
ACAD
1000
ASC_BOUNDS
1002
{
1070
    19
1005
4CD
1005
4CD
1002
}
  0
LINE
  5
4CF
  8
0
  6
CONTINUOUS
 62
     6
 10
137.01792
 20
-127.285213
 30
0.0
 11
137.01792
 21
-107.285213
 31
0.0
1001
ACAD
1000
ASC_BOUNDS
1002
{
1070
    19
1005
4CD
1005
4CD
1002
}
  0
POLYLINE
  8
0
  5
B4C
  62
6
  66
     1
 10
0.000000
 20
0.000000
 30
0.000000
  70
     8
  0
VERTEX
  8
0
  5
B4D
 10
80.6649
 20
-107.285
 30
0.000000
  70
    32
  0
VERTEX
  8
0
  5
B4E
 10
83.2068
 20
-91.7239
 30
0.000000
  70
    32
  0
VERTEX
  8
0
  5
B4F
 10
89.2068
 20
-91.7239
 30
0.000000
  70
    32
  0
SEQEND
  8
0
  5
B50
  0
TEXT
  8
0
  40
6
  5
B51
  62
6
  72
0
  71
0
 10
79.2068
 20
-102.344
 30
0.000000
  1
Rz 6,3
  0
LINE
  5
4D2
  8
0
 62
     6
 10
207.01792
 20
-102.285213
 30
0.0
 11
207.01792
 21
-132.285213
 31
0.0
  0
ARC
  5
4D3
  8
0
  6
CONTINUOUS
 62
     6
 10
192.321349
 20
-83.195501
 30
0.0
 40
24.091623
 50
269.278352
 51
307.591546
  0
ARC
  5
4D4
  8
0
  6
CONTINUOUS
 62
     6
 10
192.321349
 20
-151.374925
 30
0.0
 40
24.091623
 50
52.408454
 51
90.721648
  0
LINE
  5
4D6
  8
0
 62
     6
 10
207.01792
 20
-132.285213
 30
0.0
 11
257.01792
 21
-132.285213
 31
0.0
  0
LINE
  5
4D7
  8
0
 62
     6
 10
257.01792
 20
-132.285213
 30
0.0
 11
257.01792
 21
-102.285213
 31
0.0
  0
LINE
  5
4D8
  8
0
 62
     6
 10
257.01792
 20
-102.285213
 30
0.0
 11
207.01792
 21
-102.285213
 31
0.0
  0
DIMENSION
  5
4D9
  8
0
  6
CONTINUOUS
 62
     6
  2
*D15
 10
177.021421
 20
-127.285213
 30
0.0
 11
187.354754
 21
-95.035213
 31
0.0
 70
   128
  1
b
 13
189.740448
 23
-107.285213
 33
0.0
 14
189.740448
 24
-127.285213
 34
0.0
 50
90.0
1001
ACAD
1000
DSTYLE
1002
{
1070
   140
1040
6.0
1070
    73
1070
     0
1070
   147
1040
2.0
1070
   271
1070
     0
1070
    41
1040
6.0
1002
}
  0
DIMENSION
  5
4DA
  8
0
  6
CONTINUOUS
 62
     6
  2
*D17
 10
172.01792
 20
-137.734577
 30
0.0
 11
132.01792
 21
-137.734577
 31
0.0
 70
     0
  1
L\H4;0
 13
92.01792
 23
-127.285213
 33
0.0
 14
172.01792
 24
-127.285213
 34
0.0
1001
ACAD
1000
DSTYLE
1002
{
1070
   140
1040
6.0
1070
    73
1070
     0
1070
   147
1040
2.0
1070
   271
1070
     0
1070
    41
1040
6.0
1002
}
  0
DIMENSION
  5
4DB
  8
0
  6
CONTINUOUS
 62
     6
  2
*D16
 10
192.01792
 20
-149.646695
 30
0.0
 11
132.01792
 21
-149.646695
 31
0.0
 70
     0
  1
L\H4;c \H8;=L\H4;0\H8;+2b 
 13
72.01792
 23
-127.285213
 33
0.0
 14
192.01792
 24
-127.285213
 34
0.0
1001
ACAD
1000
DSTYLE
1002
{
1070
   140
1040
6.0
1070
    73
1070
     0
1070
   147
1040
2.0
1070
   271
1070
     0
1070
    41
1040
6.0
1002
}
  0
DIMENSION
  5
4DC
  8
0
  6
CONTINUOUS
 62
     6
  2
*D21
 10
257.08042
 20
-162.829586
 30
0.0
 11
132.04917
 21
-162.829586
 31
0.0
 70
     0
  1
L\H4;t
 13
7.01792
 23
-132.285213
 33
0.0
 14
257.08042
 24
-132.285213
 34
0.0
1001
ACAD
1000
DSTYLE
1002
{
1070
   140
1040
6.0
1070
    73
1070
     0
1070
   147
1040
2.0
1070
   271
1070
     0
1070
    41
1040
6.0
1002
}
  0
DIMENSION
  5
4DD
  8
0
  6
CONTINUOUS
 62
     6
  2
*D18
 10
57.01792
 20
-144.087707
 30
0.0
 11
32.01792
 21
-144.087707
 31
0.0
 70
     0
  1
h
 13
7.01792
 23
-132.285213
 33
0.0
 14
57.01792
 24
-132.285213
 34
0.0
1001
ACAD
1000
DSTYLE
1002
{
1070
   140
1040
6.0
1070
    73
1070
     0
1070
   147
1040
2.0
1070
   271
1070
     0
1070
    41
1040
6.0
1002
}
  0
DIMENSION
  5
4DE
  8
0
  6
CONTINUOUS
 62
     6
  2
*D19
 10
257.08042
 20
-143.293566
 30
0.0
 11
232.04917
 21
-143.293566
 31
0.0
 70
     0
  1
h
 13
207.01792
 23
-132.285213
 33
0.0
 14
257.08042
 24
-132.285213
 34
0.0
1001
ACAD
1000
DSTYLE
1002
{
1070
   140
1040
6.0
1070
    73
1070
     0
1070
   147
1040
2.0
1070
   271
1070
     0
1070
    41
1040
6.0
1002
}
  0
DIMENSION
  5
4DF
  8
0
  6
CONTINUOUS
 62
     6
  2
*D14
 10
275.802986
 20
-132.285213
 30
0.0
 11
275.802986
 21
-117.285213
 31
0.0
 70
     0
  1
B
 13
257.01792
 23
-102.285213
 33
0.0
 14
257.01792
 24
-132.285213
 34
0.0
 50
90.0
1001
ACAD
1000
DSTYLE
1002
{
1070
   140
1040
6.0
1070
    73
1070
     0
1070
   147
1040
2.0
1070
   271
1070
     0
1070
    41
1040
6.0
1002
}
  0
LINE
  5
4E0
  8
0
 62
     6
 10
207.01792
 20
-102.285213
 30
0.0
 11
207.01792
 21
-132.285213
 31
0.0
  0
DIMENSION
  5
6E9
  8
0
  6
CONTINUOUS
 62
     6
  2
*D23
 10
66.823788
 20
26.694461
 30
0.0
 11
66.160795
 21
25.528102
 31
0.0
 70
   132
  1
R20
 15
54.918364
 25
5.750078
 35
0.0
 40
0.0
1001
ACAD
1000
DSTYLE
1002
{
1070
   140
1040
6.0
1070
    73
1070
     0
1070
   147
1040
2.0
1070
   271
1070
     0
1070
    41
1040
6.0
1002
}
  0
DIMENSION
  5
6F2
  8
0
  6
CONTINUOUS
 62
     6
  2
*D24
 10
71.71449
 20
-83.195501
 30
0.0
 11
71.193481
 21
-84.431827
 31
0.0
 70
   132
  1
R20
 15
62.358679
 25
-105.396292
 35
0.0
 40
0.0
1001
ACAD
1000
DSTYLE
1002
{
1070
   140
1040
6.0
1070
    73
1070
     0
1070
   147
1040
2.0
1070
   271
1070
     0
1070
    41
1040
6.0
1002
}
  0
LINE
  5
759
  8
0
  6
CONTINUOUS
 62
     6
 10
6.285498
 20
-217.275357
 30
0.0
 11
256.285498
 21
-217.275357
 31
0.0
1001
ACAD
1000
ASC_BOUNDS
1002
{
1070
    19
1005
85F
1002
}
  0
LINE
  5
75B
  8
0
  6
CONTINUOUS
 62
     6
 10
256.285498
 20
-217.275357
 30
0.0
 11
256.285498
 21
-237.275357
 31
0.0
  0
LINE
  5
75C
  8
0
  6
CONTINUOUS
 62
     6
 10
256.285498
 20
-237.275357
 30
0.0
 11
6.285498
 21
-237.275357
 31
0.0
1001
ACAD
1000
ASC_BOUNDS
1002
{
1070
    19
1005
85F
1002
}
  0
LINE
  5
75D
  8
0
  6
CONTINUOUS
 62
     6
 10
6.285498
 20
-217.275357
 30
0.0
 11
6.285498
 21
-237.275357
 31
0.0
  0
LINE
  5
7BC
  8
0
  6
CONTINUOUS
 62
     6
 10
135.648176
 20
-237.275357
 30
0.0
 11
135.648176
 21
-217.275357
 31
0.0
1001
ACAD
1000
ASC_BOUNDS
1002
{
1070
    19
1005
85F
1002
}
  0
LINE
  5
7BD
  8
0
  6
CONTINUOUS
 62
     6
 10
126.92282
 20
-237.275357
 30
0.0
 11
126.92282
 21
-217.275357
 31
0.0
1001
ACAD
1000
ASC_BOUNDS
1002
{
1070
    19
1005
85F
1002
}
  0
INSERT
  5
85F
  8
0
  6
CONTINUOUS
 62
     6
  2
*X30
 10
0.0
 20
0.0
 30
0.0
1001
ACAD
1000
HATCH
1002
{
1070
    19
1000
ANSI31
1040
12.0
1040
0.0
1000
ASC_BOUNDS
1070
     1
1070
     1
1070
     4
1005
7BC
1005
75C
1005
7BD
1005
759
1000
ASC_SEEDPOINT
1011
134.258874
1021
0.0
1031
0.0
1021
-226.229354
1031
0.0
1000
R14_HATCH_DATA
1000
85F
1011
1.0
1021
0.0
1031
0.0
1021
0.0
1031
0.0
1011
0.0
1021
0.0
1031
0.0
1021
1.0
1031
0.0
1011
0.0
1021
0.0
1031
0.0
1021
0.0
1031
1.0
1040
0.0
1010
0.0
1020
0.0
1030
1.0
1000
ANSI31
1070
     0
1070
     1
1071
        1
1071
        7
1070
     0
1070
     1
1071
        4
1040
135.648176
1040
-217.275357
1040
126.92282
1040
-217.275357
1040
126.92282
1040
-237.275357
1040
135.648176
1040
-237.275357
1071
        4
1005
759
1005
7BD
1005
75C
1005
7BC
1070
     0
1070
     1
1040
0.0
1040
12.0
1070
     0
1070
     1
1040
0.785398
1040
0.0
1040
0.0
1040
-1.06066
1040
1.06066
1070
     0
1040
0.814
1071
        1
1040
134.258874
1040
-226.229354
1040
0.0
1002
}
  0
LINE
  5
860
  8
0
  6
CENTER
 62
     6
 10
-7.084569
 20
-227.275357
 30
0.0
 11
269.655565
 21
-227.275357
 31
0.0
  0
DIMENSION
  5
86E
  8
0
  6
CONTINUOUS
 62
     6
  2
*D25
 10
135.648176
 20
-207.50736
 30
0.0
 11
154.148176
 21
-207.50736
 31
0.0
 70
     0
  1
S\H4;0
 13
126.92282
 23
-218.852396
 33
0.0
 14
135.648176
 24
-218.852396
 34
0.0
1001
ACAD
1000
DSTYLE
1002
{
1070
   140
1040
6.0
1070
    73
1070
     0
1070
   147
1040
2.0
1070
   271
1070
     0
1070
    41
1040
6.0
1002
}
  0
DIMENSION
  5
8B8
  8
0
  6
CONTINUOUS
 62
     6
  2
*D26
 10
256.285498
 20
-253.905344
 30
0.0
 11
131.285498
 21
-253.905344
 31
0.0
 70
     0
 13
6.285498
 23
-237.275357
 33
0.0
 14
256.285498
 24
-237.275357
 34
0.0
1001
ACAD
1000
DSTYLE
1002
{
1070
   140
1040
6.0
1070
    73
1070
     0
1070
   147
1040
2.0
1070
   271
1070
     0
1070
    41
1040
6.0
1002
}
  0
DIMENSION
  5
8C7
  8
0
  6
CONTINUOUS
 62
     6
  2
*D27
 10
279.349706
 20
-237.275357
 30
0.0
 11
266.099706
 21
-243.275357
 31
0.0
 70
     0
 13
254.896196
 23
-217.275357
 33
0.0
 14
256.285498
 24
-237.275357
 34
0.0
 50
90.0
1001
ACAD
1000
DSTYLE
1002
{
1070
   140
1040
6.0
1070
   147
1040
2.0
1070
   271
1070
     0
1070
    41
1040
6.0
1002
}
  0
TEXT
  8
0
  40
8
  5
B52
  62
6
  72
0
  71
0
 10
-77.6716
 20
-14.2478
 30
0.000000
  1
1)
  0
TEXT
  8
0
  40
8
  5
B53
  62
6
  72
0
  71
0
 10
-81.7471
 20
-127.394
 30
0.000000
  1
2)
  0
TEXT
  8
0
  40
8
  5
B54
  62
6
  72
0
  71
0
 10
-82.5623
 20
-233.214
 30
0.000000
  1
3)
  0
TEXT
  8
0
  40
6
  5
B55
  62
6
  72
0
  71
0
 10
72.5699
 20
-212.334
 30
0.000000
  1
Rz 6,3
  0
POLYLINE
  8
0
  5
B56
  62
6
  66
     1
 10
0.000000
 20
0.000000
 30
0.000000
  70
     8
  0
VERTEX
  8
0
  5
B57
 10
74.0281
 20
-217.275
 30
0.000000
  70
    32
  0
VERTEX
  8
0
  5
B58
 10
76.5699
 20
-201.714
 30
0.000000
  70
    32
  0
VERTEX
  8
0
  5
B59
 10
82.5699
 20
-201.714
 30
0.000000
  70
    32
  0
SEQEND
  8
0
  5
B5A
  0
ENDSEC
  0
EOF
